Kick Ass 2 2013 READNFO WEBRiP UNiQUE

Video > Movies

Click here to download

Kick Ass 2 2013 READNFO WEBRiP UNiQUE

SIZE: 1.14GiB

Click here to download

Description

http://www.imdb.com/title/tt1650554/

The costumed high-school hero Kick-Ass joins with a group of normal citizens who have been inspired to fight crime in costume. Meanwhile, the Red Mist plots an act of revenge that will affect everyone Kick-Ass knows.

Director:
Jeff Wadlow

Writers:
Jeff Wadlow (screenplay), Mark Millar (comic book)

Stars:
Aaron Taylor-Johnson, Chloë Grace Moretz, Christopher Mintz-Plasse

Genres:
Action | Comedy | Crime

Country:
USA | UK

Language:
English

Format : AVI
Format/Info : Audio Video Interleave
File size : 1.12 GiB
Duration : 1h 38mn
Overall bit rate : 1 630 Kbps
Writing application : VirtualDubMod 1.5.10.2 (build 2540/release)
Writing library : VirtualDubMod build 2540/release

Video
ID : 0
Format : MPEG-4 Visual
Format profile : Advanced Simple@L5
Format settings, BVOP : 2
Format settings, QPel : No
Format settings, GMC : No warppoints
Format settings, Matrix : Default (H.263)
Muxing mode : Packed bitstream
Codec ID : XVID
Codec ID/Hint : XviD
Duration : 1h 38mn
Bit rate : 1 492 Kbps
Width : 720 pixels
Height : 292 pixels
Display aspect ratio : 16:9
Original display aspect ratio : 2.466
Frame rate : 25.000 fps
Color space : YUV
Chroma subsampling : 4:2:0
Bit depth : 8 bits
Scan type : Progressive
Compression mode : Lossy
Bits/(Pixel*Frame) : 0.284
Stream size : 1.03 GiB (92%)
Writing library : XviD 64

Audio
ID : 1
Format : AC-3
Format/Info : Audio Coding 3
Mode extension : CM (complete main)
Format settings, Endianness : Big
Codec ID : 2000
Duration : 1h 38mn
Bit rate mode : Constant
Bit rate : 128 Kbps
Channel(s) : 2 channels
Channel positions : Front: L R
Sampling rate : 44.1 KHz
Bit depth : 16 bits
Compression mode : Lossy
Stream size : 90.4 MiB (8%)
Alignment : Split accross interleaves
Interleave, duration : 40 ms (1.00 video frame)
Interleave, preload duration : 500 ms

Source Used SmY- Thanks


http://bayimg.com/MApMOaAED

http://bayimg.com/napMaAAED

Comments

 1 2 3

Tags

Kick Ass 2 2013 READNFO WEBRiP UNiQUE Torrent Download torrentz.euKick Ass 2 2013 READNFO WEBRiP UNiQUE 16 torrent download locations Download Direct Kick Ass 2 2013 READNFO WEBRiP UNiQUE movies xvid Sponsored Link Kick Ass 2 2013 READNFO WEBRiP UNiQUE Torrent Download kick-ass-2-2013-readnfo-webrip-unique .html Download the Kick Ass 2 2013 READNFO WEBRiP UNiQUE Torrent or choose other Kick Ass 2 2013 READNFO WEBRiP UNiQUE torrent downloads. NewTorrents.info – Kick_Ass_2_2013_READNFO_WEBRiP-UNiQUE Kick_Ass_2_2013_READNFO_WEBRiP-UNiQUE .html – dsl speed downloading up to 25 Mbps – 100% anonymous access to the usenet. – Over 300 TB available in all categories. – Special offer: 3 GB free! Download Kick Ass 2 2013 READNFO WEBRiP UNiQUE Torrent 1337x.orgKick-Ass-2-2013-READNFO-WEBRiP-UNiQUE Kick Ass 2 2013 READNFO WEBRiP UNiQUE . 0. 0. Category Movies downloads 1197. type Divxlast checked 2 months ago. language English date uploaded 4 months 2 weeks Download Kick Ass 2 2013 READNFO WEBRiP-UNiQUE Torrent | 1337x.org 1337x.orgKick-Ass-2-2013-READNFO-WEBRiP-UNiQUE Code: Kick Ass 2 2013 READNFO WEBRiP-UNiQUE Format : AVI Format: Audio Video Interleave Kick Ass 2 2013 WEBRiP UNiQUE Torrent – TorrentFunk kick-ass-2-2013-readnfo-webrip-unique .html Download the Kick Ass 2 2013 READNFO WEBRiP UNiQUE Torrent or choose other Verified Torrent downloads for Free with TorrentFunk. Kick Ass 2 2013 READNFO WEBRiP-UNiQUE torrent – Share the fun Kick Ass 2 2013 READNFO WEBRiP-UNiQUE Format : AVI Format: Audio Video Interleave Kick Ass 2 2013 READNFO WEBRiP UNiQUE torrent – Share the Kick Ass 2 2013 READNFO WEBRiP UNiQUE : IMDB: Genres: Action Comedy Crime Subtitles: Description: Kick Ass 2 | 2013 | READNFO | WEBRiP | UNiQUE 2013 -dvdrip-amp-br-bdrip-filmlerkick – ass ÜYELER İÇİN YASAL UYARI Forum alanlarını kullanırken; 3.Şahısların kişilik ve gizlilik haklarını ihlal edici iletiler yazmak, Pornografik görüntüler Kick Ass 2 (2013) READNFO WEBRiP UNiQUE | 300MB Links 300mblinks.com2013 kick-ass-2-2013-readnfo-webrip-unique iMDB. Download Kick Ass 2 (2013) READNFO WEBRiP UNiQUE . Plot. After Kick – Ass ’ insane bravery inspires a new wave of self-made masked crusaders, led by the badass Pagination 1 2 3 4 5 Next
link link link link link link link link link link

cde:QzpcIVBBUlNFXDIwMVxsdXRoYzF0bXBwLnR4dA==:cde

Leave a Reply